[ 4 ]  獎賞

描述

歐美   免空   BluRay   1080P


[另開]

[另開]https://www.imdb.com/title/tt5113040/

【MediaInfo】:
引用

Video
ID : 1
Format : AVC
Format/Info : Advanced Video Codec
Format profile : High@L4.1
Format settings : CABAC / 4 Ref Frames
Format settings, CABAC : Yes
Format settings, Reference frames : 4 frames
Codec ID : V_MPEG4/ISO/AVC
Duration : 1 h 26 min
Bit rate mode : Variable
Bit rate : 32.1 Mb/s
Maximum bit rate : 35.0 Mb/s
Width : 1 920 pixels
Height : 1 080 pixels
Display aspect ratio : 16:9
Frame rate mode : Constant
Frame rate : 23.976 (24000/1001) FPS
Color space : YUV
Chroma subsampling : 4:2:0
Bit depth : 8 bits
Scan type : Progressive
Bits/(Pixel*Frame) : 0.645
Stream size : 19.3 GiB (75%)
Title : The.Secret.Life.of.Pets.2.2019.1080p.BluRay.REMUX.AVC.DTS-HD.MA.TrueHD.7.1.Atmos-FGT
Language : English
Default : No
Forced : No

Audio #1
ID : 2
Format : MLP FBA 16-ch
Format/Info : Meridian Lossless Packing FBA with 16-channel presentation
Commercial name : Dolby TrueHD with Dolby Atmos
Codec ID : A_TRUEHD
Duration : 1 h 26 min
Bit rate mode : Variable
Bit rate : 3 318 kb/s
Maximum bit rate : 4 644 kb/s
Channel(s) : 8 channels
Channel layout : L R C LFE Ls Rs Lb Rb
Sampling rate : 48.0 kHz
Frame rate : 1 200.000 FPS (40 SPF)
Compression mode : Lossless
Stream size : 1.99 GiB (8%)
Title : The.Secret.Life.of.Pets.2.2019.1080p.BluRay.REMUX.AVC.DTS-HD.MA.TrueHD.7.1.Atmos-FGT
Language : English
Default : Yes
Forced : No
Number of dynamic objects : 11
Bed channel count : 1 channel
Bed channel configuration : LFE

Audio #2
ID : 3
Format : DTS XLL
Format/Info : Digital Theater Systems
Commercial name : DTS-HD Master Audio
Codec ID : A_DTS
Duration : 1 h 26 min
Bit rate mode : Variable
Bit rate : 4 107 kb/s
Channel(s) : 8 channels
Channel layout : C L R LFE Lb Rb Lss Rss
Sampling rate : 48.0 kHz
Frame rate : 93.750 FPS (512 SPF)
Bit depth : 24 bits
Compression mode : Lossless
Stream size : 2.47 GiB (10%)
Title : The.Secret.Life.of.Pets.2.2019.1080p.BluRay.REMUX.AVC.DTS-HD.MA.TrueHD.7.1.Atmos-FGT
Language : English
Default : No
Forced : No

Audio #3
ID : 4
Format : AC-3
Format/Info : Audio Coding 3
Commercial name : Dolby Digital
Codec ID : A_AC3
Duration : 1 h 26 min
Bit rate mode : Constant
Bit rate : 448 kb/s
Channel(s) : 6 channels
Channel layout : L R C LFE Ls Rs
Sampling rate : 48.0 kHz
Frame rate : 31.250 FPS (1536 SPF)
Bit depth : 16 bits
Compression mode : Lossy
Stream size : 276 MiB (1%)
Title : The.Secret.Life.of.Pets.2.2019.1080p.BluRay.REMUX.AVC.DTS-HD.MA.TrueHD.7.1.Atmos-FGT
Language : English
Service kind : Complete Main
Default : No
Forced : No

Audio #4
ID : 5
Format : E-AC-3
Format/Info : Enhanced AC-3
Commercial name : Dolby Digital Plus
Format profile : Blu-ray Disc
Codec ID : A_EAC3
Duration : 1 h 26 min
Bit rate mode : Constant
Bit rate : 768 kb/s
Channel(s) : 8 channels
Channel layout : L R C LFE Ls Rs Lb Rb
Sampling rate : 48.0 kHz
Frame rate : 31.250 FPS (1536 SPF)
Compression mode : Lossy
Stream size : 473 MiB (2%)
Title : The.Secret.Life.of.Pets.2.2019.1080p.BluRay.REMUX.AVC.DTS-HD.MA.TrueHD.7.1.Atmos-FGT
Language : Spanish
Service kind : Complete Main
Default : No
Forced : No

Audio #5
ID : 6
Format : AC-3
Format/Info : Audio Coding 3
Commercial name : Dolby Digital
Codec ID : A_AC3
Duration : 1 h 26 min
Bit rate mode : Constant
Bit rate : 448 kb/s
Channel(s) : 6 channels
Channel layout : L R C LFE Ls Rs
Sampling rate : 48.0 kHz
Frame rate : 31.250 FPS (1536 SPF)
Bit depth : 16 bits
Compression mode : Lossy
Stream size : 276 MiB (1%)
Title : The.Secret.Life.of.Pets.2.2019.1080p.BluRay.REMUX.AVC.DTS-HD.MA.TrueHD.7.1.Atmos-FGT
Language : Spanish
Service kind : Complete Main
Default : No
Forced : No

Audio #6
ID : 7
Format : E-AC-3
Format/Info : Enhanced AC-3
Commercial name : Dolby Digital Plus
Format profile : Blu-ray Disc
Codec ID : A_EAC3
Duration : 1 h 26 min
Bit rate mode : Constant
Bit rate : 768 kb/s
Channel(s) : 8 channels
Channel layout : L R C LFE Ls Rs Lb Rb
Sampling rate : 48.0 kHz
Frame rate : 31.250 FPS (1536 SPF)
Compression mode : Lossy
Stream size : 473 MiB (2%)
Title : The.Secret.Life.of.Pets.2.2019.1080p.BluRay.REMUX.AVC.DTS-HD.MA.TrueHD.7.1.Atmos-FGT
Language : French
Service kind : Complete Main
Default : No
Forced : No

Audio #7
ID : 8
Format : AC-3
Format/Info : Audio Coding 3
Commercial name : Dolby Digital
Codec ID : A_AC3
Duration : 1 h 26 min
Bit rate mode : Constant
Bit rate : 448 kb/s
Channel(s) : 6 channels
Channel layout : L R C LFE Ls Rs
Sampling rate : 48.0 kHz
Frame rate : 31.250 FPS (1536 SPF)
Bit depth : 16 bits
Compression mode : Lossy
Stream size : 276 MiB (1%)
Title : The.Secret.Life.of.Pets.2.2019.1080p.BluRay.REMUX.AVC.DTS-HD.MA.TrueHD.7.1.Atmos-FGT
Language : French
Service kind : Complete Main
Default : No
Forced : No

Audio #8
ID : 9
Format : AC-3
Format/Info : Audio Coding 3
Commercial name : Dolby Digital
Codec ID : A_AC3
Duration : 1 h 26 min
Bit rate mode : Constant
Bit rate : 192 kb/s
Channel(s) : 2 channels
Channel layout : L R
Sampling rate : 48.0 kHz
Frame rate : 31.250 FPS (1536 SPF)
Bit depth : 16 bits
Compression mode : Lossy
Stream size : 118 MiB (0%)
Title : The.Secret.Life.of.Pets.2.2019.1080p.BluRay.REMUX.AVC.DTS-HD.MA.TrueHD.7.1.Atmos-FGT
Language : English
Service kind : Complete Main
Default : No
Forced : No

Text #1
ID : 10
Format : UTF-8
Codec ID : S_TEXT/UTF8
Codec ID/Info : UTF-8 Plain Text
Duration : 1 h 25 min
Bit rate : 47 b/s
Count of elements : 1229
Stream size : 29.9 KiB (0%)
Title : English-SRT
Language : English
Default : Yes
Forced : No

Text #2
ID : 11
Format : UTF-8
Codec ID : S_TEXT/UTF8
Codec ID/Info : UTF-8 Plain Text
Duration : 1 h 25 min
Bit rate : 77 b/s
Count of elements : 1924
Stream size : 48.5 KiB (0%)
Title : English-SDH-SRT
Language : English
Default : No
Forced : No

Text #3
ID : 12
Format : PGS
Muxing mode : zlib
Codec ID : S_HDMV/PGS
Codec ID/Info : Picture based subtitle format used on BDs/HD-DVDs
Duration : 1 h 25 min
Bit rate : 46.3 kb/s
Count of elements : 3286
Stream size : 28.3 MiB (0%)
Title : English-PGS
Language : English
Default : No
Forced : No

Text #4
ID : 13
Format : PGS
Muxing mode : zlib
Codec ID : S_HDMV/PGS
Codec ID/Info : Picture based subtitle format used on BDs/HD-DVDs
Duration : 1 h 25 min
Bit rate : 27.3 kb/s
Count of elements : 2178
Stream size : 16.7 MiB (0%)
Title : Spansh-PGS
Language : Spanish
Default : No
Forced : No

Text #5
ID : 14
Format : PGS
Muxing mode : zlib
Codec ID : S_HDMV/PGS
Codec ID/Info : Picture based subtitle format used on BDs/HD-DVDs
Duration : 1 h 25 min
Bit rate : 27.7 kb/s
Count of elements : 2002
Stream size : 16.9 MiB (0%)
Title : French-PGS
Language : French
Default : No
Forced : No

Text #6
ID : 15
Format : PGS
Muxing mode : zlib
Codec ID : S_HDMV/PGS
Codec ID/Info : Picture based subtitle format used on BDs/HD-DVDs
Duration : 1 h 20 min
Bit rate : 182 b/s
Count of elements : 10
Stream size : 107 KiB (0%)
Title : Spanish-FORCED-PGS
Language : Spanish
Default : No
Forced : No

Text #7
ID : 16
Format : PGS
Muxing mode : zlib
Codec ID : S_HDMV/PGS
Codec ID/Info : Picture based subtitle format used on BDs/HD-DVDs
Duration : 1 h 13 min
Bit rate : 944 b/s
Count of elements : 56
Stream size : 512 KiB (0%)
Title : French-FORCED-PGS
Language : French
Default : No
Forced : No


【External subtitles】:CHT/EN

【Download Tools】:
JDownloader,Official Home Page:http://jdownloader.org
Mipony,Official Home Page:http://www.mipony.net/

【Download Link】
!!!含隱藏內容 ( 點讚!後 或 90 天自動解除 )!!!

【UnzipPassword】
!!!含隱藏內容 ( 點讚!後 或 90 天自動解除 )!!!