[ 4 ]  獎賞

描述

歐美   免空   BluRay   1080P


[另開]

【Pilot】
Anne Hathaway and Rebel Wilson star as female scam artists, one low rent and the other high class, who team up to take down the men who have wronged them.

【DISC INFO】
引用

Video
ID : 1
Format : AVC
Format/Info : Advanced Video Codec
Format profile : High@L4.1
Format settings : CABAC / 4 Ref Frames
Format settings, CABAC : Yes
Format settings, Reference frames : 4 frames
Codec ID : V_MPEG4/ISO/AVC
Duration : 1 h 33 min
Bit rate mode : Variable
Bit rate : 32.2 Mb/s
Maximum bit rate : 35.9 Mb/s
Width : 1 920 pixels
Height : 1 080 pixels
Display aspect ratio : 16:9
Frame rate mode : Constant
Frame rate : 23.976 (24000/1001) FPS
Color space : YUV
Chroma subsampling : 4:2:0
Bit depth : 8 bits
Scan type : Progressive
Bits/(Pixel*Frame) : 0.648
Stream size : 21.2 GiB (80%)
Title : The.Hustle.2019.1080p.BluRay.REMUX.AVC.DTS-HD.MA.7.1-FGT
Language : English
Default : No
Forced : No

Audio #1
ID : 2
Format : DTS XLL
Format/Info : Digital Theater Systems
Commercial name : DTS-HD Master Audio
Codec ID : A_DTS
Duration : 1 h 33 min
Bit rate mode : Variable
Bit rate : 4 644 kb/s
Channel(s) : 8 channels
Channel layout : C L R LFE Lb Rb Lss Rss
Sampling rate : 48.0 kHz
Frame rate : 93.750 FPS (512 SPF)
Bit depth : 24 bits
Compression mode : Lossless
Stream size : 3.05 GiB (12%)
Title : The.Hustle.2019.1080p.BluRay.REMUX.AVC.DTS-HD.MA.7.1-FGT
Language : English
Default : Yes
Forced : No

Audio #2
ID : 3
Format : DTS
Format/Info : Digital Theater Systems
Codec ID : A_DTS
Duration : 1 h 33 min
Bit rate mode : Constant
Bit rate : 768 kb/s
Channel(s) : 6 channels
Channel layout : C L R Ls Rs LFE
Sampling rate : 48.0 kHz
Frame rate : 93.750 FPS (512 SPF)
Bit depth : 24 bits
Compression mode : Lossy
Stream size : 516 MiB (2%)
Title : The.Hustle.2019.1080p.BluRay.REMUX.AVC.DTS-HD.MA.7.1-FGT
Language : Spanish
Default : No
Forced : No

Audio #3
ID : 4
Format : DTS XBR
Format/Info : Digital Theater Systems
Commercial name : DTS-HD High Resolution Audio
Codec ID : A_DTS
Duration : 1 h 33 min
Bit rate mode : Constant
Bit rate : 2 046 kb/s
Channel(s) : 8 channels
Channel layout : C L R LFE Lb Rb Lss Rss
Sampling rate : 48.0 kHz
Frame rate : 93.750 FPS (512 SPF)
Bit depth : 24 bits
Compression mode : Lossy
Stream size : 1.34 GiB (5%)
Title : The.Hustle.2019.1080p.BluRay.REMUX.AVC.DTS-HD.MA.7.1-FGT
Language : French
Default : No
Forced : No

Audio #4
ID : 5
Format : AC-3
Format/Info : Audio Coding 3
Commercial name : Dolby Digital
Codec ID : A_AC3
Duration : 1 h 33 min
Bit rate mode : Constant
Bit rate : 192 kb/s
Channel(s) : 2 channels
Channel layout : L R
Sampling rate : 48.0 kHz
Frame rate : 31.250 FPS (1536 SPF)
Bit depth : 16 bits
Compression mode : Lossy
Stream size : 129 MiB (0%)
Title : The.Hustle.2019.1080p.BluRay.REMUX.AVC.DTS-HD.MA.7.1-FGT
Language : English
Service kind : Complete Main
Default : No
Forced : No

Audio #5
ID : 6
Format : AC-3
Format/Info : Audio Coding 3
Commercial name : Dolby Digital
Codec ID : A_AC3
Duration : 1 h 33 min
Bit rate mode : Constant
Bit rate : 192 kb/s
Channel(s) : 2 channels
Channel layout : L R
Sampling rate : 48.0 kHz
Frame rate : 31.250 FPS (1536 SPF)
Bit depth : 16 bits
Compression mode : Lossy
Stream size : 129 MiB (0%)
Title : The.Hustle.2019.1080p.BluRay.REMUX.AVC.DTS-HD.MA.7.1-FGT
Language : English
Service kind : Complete Main
Default : No
Forced : No

Text #1
ID : 7
Format : UTF-8
Codec ID : S_TEXT/UTF8
Codec ID/Info : UTF-8 Plain Text
Duration : 1 h 32 min
Bit rate : 72 b/s
Count of elements : 1781
Stream size : 49.4 KiB (0%)
Title : English-SRT
Language : English
Default : Yes
Forced : No

Text #2
ID : 8
Format : PGS
Muxing mode : zlib
Codec ID : S_HDMV/PGS
Codec ID/Info : Picture based subtitle format used on BDs/HD-DVDs
Duration : 1 h 33 min
Bit rate : 51.3 kb/s
Count of elements : 3512
Stream size : 34.2 MiB (0%)
Title : English-PGS
Language : English
Default : No
Forced : No

Text #3
ID : 9
Format : PGS
Muxing mode : zlib
Codec ID : S_HDMV/PGS
Codec ID/Info : Picture based subtitle format used on BDs/HD-DVDs
Duration : 1 h 33 min
Bit rate : 44.9 kb/s
Count of elements : 3308
Stream size : 29.9 MiB (0%)
Title : Spanish-PGS
Language : Spanish
Default : No
Forced : No

Text #4
ID : 10
Format : PGS
Muxing mode : zlib
Codec ID : S_HDMV/PGS
Codec ID/Info : Picture based subtitle format used on BDs/HD-DVDs
Duration : 1 h 33 min
Bit rate : 42.0 kb/s
Count of elements : 3156
Stream size : 28.0 MiB (0%)
Title : French-PGS
Language : French
Default : No
Forced : No

Text #5
ID : 11
Format : PGS
Muxing mode : zlib
Codec ID : S_HDMV/PGS
Codec ID/Info : Picture based subtitle format used on BDs/HD-DVDs
Duration : 1 h 33 min
Bit rate : 576 b/s
Count of elements : 48
Stream size : 393 KiB (0%)
Title : Spanish-PGS
Language : Spanish
Default : No
Forced : No

Text #6
ID : 12
Format : PGS
Muxing mode : zlib
Codec ID : S_HDMV/PGS
Codec ID/Info : Picture based subtitle format used on BDs/HD-DVDs
Duration : 1 h 33 min
Bit rate : 432 b/s
Count of elements : 38
Stream size : 295 KiB (0%)
Title : French-FORCED-PGS
Language : French
Default : No
Forced : No

Menu
00:00:00.000 : en:Chapter 01
00:05:58.858 : en:Chapter 02
00:09:56.053 : en:Chapter 03
00:15:29.553 : en:Chapter 04
00:21:12.646 : en:Chapter 05
00:25:19.851 : en:Chapter 06
00:32:26.903 : en:Chapter 07
00:37:56.607 : en:Chapter 08
00:41:51.300 : en:Chapter 09
00:44:55.818 : en:Chapter 10
00:49:56.326 : en:Chapter 11
00:54:34.896 : en:Chapter 12
00:59:16.261 : en:Chapter 13
01:02:15.898 : en:Chapter 14
01:06:47.586 : en:Chapter 15
01:09:58.152 : en:Chapter 16
01:15:16.178 : en:Chapter 17
01:21:37.058 : en:Chapter 18
01:28:58.833 : en:Chapter 19
01:32:27.041 : en:Chapter 20


【External subtitles】:CHT/EN

【Download Tools】:
JDownloader,Official Home Page:http://jdownloader.org
Mipony,Official Home Page:http://www.mipony.net/

【Download Link】
!!!含隱藏內容 ( 點讚!後 或 90 天自動解除 )!!!

【UnzipPassword】
!!!含隱藏內容 ( 點讚!後 或 90 天自動解除 )!!!