[ 15 ]  獎賞

描述

歐美   免空   BluRay   1080P


[另開]

【Pilot】
Two detectives, a rookie and a veteran, hunt a serial killer who uses the seven deadly sins as his motives.

【DISC INFO】
引用

Video
ID : 1
Format : AVC
Format/Info : Advanced Video Codec
Format profile : High@L4.1
Format settings, CABAC : Yes
Format settings, ReFrames : 5 frames
Codec ID : V_MPEG4/ISO/AVC
Duration : 2h 6mn
Bit rate : 12.1 Mbps
Width : 1 920 pixels
Height : 800 pixels
Display aspect ratio : 2.40:1
Frame rate mode : Constant
Frame rate : 23.976 (24000/1001) fps
Color space : YUV
Chroma subsampling : 4:2:0
Bit depth : 8 bits
Scan type : Progressive
Bits/(Pixel*Frame) : 0.327
Stream size : 10.7 GiB (89%)
Writing library : x264 core 148 r2705 3f5ed56
Encoding settings : cabac=1 / ref=5 / deblock=1:-3:-3 / analyse=0x3:0x133 / me=umh / subme=9 / psy=1 / psy_rd=1.00:0.25 / mixed_ref=1 / me_range=24 / chroma_me=1 / trellis=2 / 8x8dct=1 / cqm=0 / deadzone=21,11 / fast_pskip=1 / chroma_qp_offset=-4 / threads=24 / lookahead_threads=2 / sliced_threads=0 / nr=0 / decimate=1 / interlaced=0 / bluray_compat=0 / constrained_intra=0 / bframes=3 / b_pyramid=2 / b_adapt=2 / b_bias=0 / direct=3 / weightb=1 / open_gop=0 / weightp=2 / keyint=240 / keyint_min=24 / scenecut=40 / intra_refresh=0 / rc_lookahead=60 / rc=2pass / mbtree=1 / bitrate=12053 / ratetol=1.0 / qcomp=0.60 / qpmin=0 / qpmax=69 / qpstep=4 / cplxblur=20.0 / qblur=0.5 / ip_ratio=1.40 / aq=1:0.50
Default : Yes
Forced : No

Audio
ID : 2
Format : DTS
Format/Info : Digital Theater Systems
Format profile : ES Matrix / Core
Mode : 16
Format settings, Endianness : Big
Codec ID : A_DTS
Duration : 2h 6mn
Bit rate mode : Constant
Bit rate : 1 509 Kbps
Channel(s) : 7 channels / 6 channels
Channel positions : Front: L C R, Side: L R, Back: C, LFE / Front: L C R, Side: L R, LFE
Sampling rate : 48.0 KHz
Frame rate : 93.750 fps (512 spf)
Bit depth : 24 bits
Compression mode : Lossy
Stream size : 1.34 GiB (11%)
Language : English
Default : Yes
Forced : No

Text #1
ID : 3
Format : UTF-8
Codec ID : S_TEXT/UTF8
Codec ID/Info : UTF-8 Plain Text
Duration : 2h 0mn
Bit rate : 60 bps
Count of elements : 1548
Stream size : 53.5 KiB (0%)
Language : English
Default : No
Forced : No

Text #2
ID : 4
Format : UTF-8
Codec ID : S_TEXT/UTF8
Codec ID/Info : UTF-8 Plain Text
Duration : 2h 6mn
Bit rate : 61 bps
Count of elements : 1662
Stream size : 57.0 KiB (0%)
Title : SDH
Language : English
Default : No
Forced : No

Menu
00:00:00.000 : en:00:00:00.000
00:04:11.251 : en:00:04:11.251
00:06:19.254 : en:00:06:19.254
00:07:33.745 : en:00:07:33.745
00:14:47.512 : en:00:14:47.512
00:17:07.443 : en:00:17:07.443
00:18:11.465 : en:00:18:11.465
00:21:42.176 : en:00:21:42.176
00:24:26.757 : en:00:24:26.757
00:29:28.517 : en:00:29:28.517
00:30:27.034 : en:00:30:27.034
00:33:13.158 : en:00:33:13.158
00:37:28.455 : en:00:37:28.455
00:42:23.541 : en:00:42:23.541
00:43:32.860 : en:00:43:32.860
00:47:43.235 : en:00:47:43.235
00:50:18.390 : en:00:50:18.390
00:54:24.803 : en:00:54:24.803
00:57:28.195 : en:00:57:28.195
01:01:45.160 : en:01:01:45.160
01:04:19.606 : en:01:04:19.606
01:07:26.584 : en:01:07:26.584
01:14:45.022 : en:01:14:45.022
01:20:34.038 : en:01:20:34.038
01:24:07.251 : en:01:24:07.251
01:25:04.141 : en:01:25:04.141
01:28:15.499 : en:01:28:15.499
01:33:05.163 : en:01:33:05.163
01:33:58.800 : en:01:33:58.800
01:36:46.968 : en:01:36:46.968
01:39:04.480 : en:01:39:04.480
01:40:53.798 : en:01:40:53.798
01:44:05.030 : en:01:44:05.030
01:50:53.856 : en:01:50:53.856
01:53:06.196 : en:01:53:06.196
01:56:56.635 : en:01:56:56.635
02:02:00.313 : en:02:02:00.313


【External subtitles】:CHT/EN

【Download Tools】:
JDownloader,Official Home Page:http://jdownloader.org
Mipony,Official Home Page:http://www.mipony.net/

【Download Link】
!!!已解除隱藏內容 或 90 天後自動解除!!!
Code
https://www41.zippyshare.com/v/vdT7ZquS/file.html


【UnzipPassword】
!!!已解除隱藏內容 或 90 天後自動解除!!!

GL5756B3754FNJJ_FDZone.ORG_-4xu/6ufusu061l31o4a83sl3ru4vm4y94j6vu04jo4sup6zpvu;3e04_FASTOL5757E5D2EENIM_by_FastZone.ORG