上一個舊標題
下一個新標題
列印標題
Godzilla King of the Monsters 哥吉拉 II 怪獸之王[GD@9717MB] #25796 2019-08-13 06:26 PM 2019-08-13 06:26 PM
?
網路搜尋
網路搜尋
?
[ 10 ]  獎賞

描述

歐美   免空   WEB-DL   1080P


[另開]

【Pilot】
The crypto-zoological agency Monarch faces off against a battery of god-sized monsters, including the mighty Godzilla, who collides with Mothra, Rodan, and his ultimate nemesis, the three-headed King Ghidorah.

【DISC INFO】
引用

Video
ID : 1
Format : AVC
Format/Info : Advanced Video Codec
Format profile : High@L4
Format settings : CABAC / 4 Ref Frames
Format settings, CABAC : Yes
Format settings, Reference frames : 4 frames
Codec ID : V_MPEG4/ISO/AVC
Duration : 2 h 11 min
Bit rate mode : Constant
Bit rate : 9 199 kb/s
Nominal bit rate : 10 000 kb/s
Width : 1 920 pixels
Height : 800 pixels
Display aspect ratio : 2.40:1
Frame rate mode : Constant
Frame rate : 23.976 (24000/1001) FPS
Color space : YUV
Chroma subsampling : 4:2:0
Bit depth : 8 bits
Scan type : Progressive
Bits/(Pixel*Frame) : 0.250
Stream size : 8.46 GiB (93%)
Default : Yes
Forced : No
Color range : Limited
Color primaries : BT.709
Transfer characteristics : BT.709
Matrix coefficients : BT.709

Audio
ID : 2
Format : E-AC-3
Format/Info : Enhanced AC-3
Commercial name : Dolby Digital Plus
Codec ID : A_EAC3
Duration : 2 h 11 min
Bit rate mode : Constant
Bit rate : 640 kb/s
Channel(s) : 6 channels
Channel layout : L R C LFE Ls Rs
Sampling rate : 48.0 kHz
Frame rate : 31.250 FPS (1536 SPF)
Compression mode : Lossy
Stream size : 603 MiB (7%)
Language : English
Service kind : Complete Main
Default : Yes
Forced : No

Text #1
ID : 3
Format : UTF-8
Codec ID : S_TEXT/UTF8
Codec ID/Info : UTF-8 Plain Text
Duration : 2 h 10 min
Bit rate : 42 b/s
Count of elements : 1482
Stream size : 40.9 KiB (0%)
Language : English
Default : No
Forced : No

Text #2
ID : 4
Format : UTF-8
Codec ID : S_TEXT/UTF8
Codec ID/Info : UTF-8 Plain Text
Duration : 2 h 11 min
Bit rate : 51 b/s
Count of elements : 1857
Stream size : 49.7 KiB (0%)
Title : SDH
Language : English
Default : No
Forced : No


【External subtitles】:CHT

【Download Tools】:
JDownloader,Official Home Page:http://jdownloader.org
Mipony,Official Home Page:http://www.mipony.net/

【Download Link】
!!!含隱藏內容 ( 點讚!後 或 90 天自動解除 )!!!

【UnzipPassword】
!!!含隱藏內容 ( 點讚!後 或 90 天自動解除 )!!!

點讚!
Re: Godzilla King of the Monsters 哥吉拉 II 怪獸之王[GD@9717MB] #25864 2019-08-14 08:52 AM 2019-08-14 08:52 AM
加入: Aug 2019
總分: 0
J
jaffly 離線
等級 001
jaffly  離線
等級 001
JAF

加入: Aug 2019
總分: 0
期待已久的片子,感謝分享!


留言板 ShoutChat
八月
S M T W T F S
1 2 3
4 5 6 7 8 9 10
11 12 13 14 15 16 17
18 19 20 21 22 23 24
25 26 27 28 29 30 31
現有在線 ( 144 )
30 會員 (dwuiwd, ★∮Blue♂★, mixmaster, donxican, Kimi, ntseven, 衰靓仔, kkuo999, i54201314, エロ魔人, moca1234, carhartt, pin, bicd5520617, ta03, bulat, Tyson, picket1, colwu, 電影王, jackygal, mn, voking, gundamnts, ckkp2p2008, kks4396, RyomaSky, 小銘, s5698, Henrywmh), 71 遊客 43 搜尋器.
義工: Dev, 義工, Mod
© 2003-2046 Design by UNetBoard ft.™ v8.523 (Core by UBB)